<?xml version="1.0" standalone="no"?>
<!DOCTYPE svg PUBLIC "-//W3C//DTD SVG 1.1//EN" "http://www.w3.org/Graphics/SVG/1.1/DTD/svg11.dtd" >
<svg xmlns="http://www.w3.org/2000/svg">
<metadata>Generated by IcoMoon</metadata>
<defs>
<font id="icomoon" horiz-adv-x="1024">
<font-face units-per-em="1024" ascent="960" descent="-64" />
<missing-glyph horiz-adv-x="1024" />
<glyph unicode="&#x20;" horiz-adv-x="512" d="" />
<glyph unicode="&#xe900;" glyph-name="Arrow-long-down" d="M492.349-48.63v981.719c0 11.661 9.453 21.115 21.115 21.115s21.115-9.453 21.115-21.115v0-930.724l128.113 128.123c3.825 3.825 9.109 6.191 14.945 6.191 11.673 0 21.136-9.463 21.136-21.136 0-5.836-2.366-11.12-6.191-14.945l-164.219-164.25c-3.808-3.825-9.078-6.192-14.9-6.192-2.935 0-5.729 0.601-8.267 1.688l0.137-0.052c-7.694 3.303-12.984 10.815-12.984 19.562 0 0.006 0 0.012 0 0.018v-0.001zM327.936 115.784c0 0.024 0 0.053 0 0.082 0 5.802 2.374 11.050 6.203 14.825l0.002 0.002c3.826 3.822 9.11 6.186 14.945 6.186s11.119-2.364 14.945-6.187v0l164.413-164.413c3.67-3.797 5.932-8.975 5.932-14.682 0-11.673-9.463-21.135-21.135-21.135-5.709 0-10.889 2.264-14.693 5.942l-164.377 164.397c-3.852 3.818-6.236 9.111-6.236 14.961 0 0.007 0 0.014 0 0.022v-0.001z" />
<glyph unicode="&#xe901;" glyph-name="Arrow-long-rt" d="M1002.834 417.915h-981.719c-11.661 0-21.115 9.453-21.115 21.115s9.453 21.115 21.115 21.115v0h930.724l-128.133 128.113c-3.825 3.825-6.191 9.109-6.191 14.945 0 11.673 9.463 21.136 21.136 21.136 5.836 0 11.12-2.366 14.945-6.191l164.26-164.219c3.825-3.808 6.192-9.078 6.192-14.9 0-2.935-0.601-5.729-1.688-8.267l0.052 0.137c-3.303-7.694-10.815-12.984-19.562-12.984-0.006 0-0.012 0-0.018 0h0.001zM838.42 253.501c-0.025 0-0.056 0-0.086 0-5.801 0-11.047 2.374-14.821 6.203l-0.002 0.003c-3.824 3.823-6.19 9.105-6.19 14.94s2.365 11.117 6.19 14.94l164.413 164.413c3.783 3.601 8.913 5.817 14.562 5.817 11.673 0 21.135-9.463 21.135-21.135 0-5.648-2.215-10.779-5.825-14.57l0.008 0.009-164.403-164.383c-3.818-3.852-9.111-6.236-14.961-6.236-0.007 0-0.014 0-0.022 0h0.001z" />
<glyph unicode="&#xe902;" glyph-name="Arrow-sm-left" d="M370.944 769.444c8.433-8.415 13.65-20.049 13.65-32.903 0-12.674-5.073-24.164-13.299-32.549l0.007 0.007-216.228-216.596h823.040c25.537 0 46.239-20.702 46.239-46.239s-20.702-46.239-46.239-46.239v0h-822.682l216.248-216.596c8.142-8.411 13.16-19.889 13.16-32.539 0-12.83-5.162-24.454-13.522-32.91l0.004 0.004c-8.316-8.208-19.748-13.278-32.363-13.278-12.794 0-24.37 5.214-32.719 13.633l-0.003 0.003-293.079 295.199c-3.88 4.145-7.106 8.965-9.473 14.253l-0.132 0.329c-2.247 5.117-3.555 11.082-3.555 17.353 0 0.153 0.001 0.305 0.002 0.457v-0.023c0 0.004 0 0.009 0 0.014 0 12.591 5.020 24.010 13.168 32.364l-0.009-0.010 293.079 295.199c8.274 8.71 19.942 14.129 32.875 14.129 12.409 0 23.653-4.988 31.836-13.068l-0.005 0.005z" />
<glyph unicode="&#xe903;" glyph-name="Arrow-sm-right" d="M653.025 768.573c-8.433-8.415-13.65-20.049-13.65-32.903 0-12.674 5.073-24.164 13.299-32.549l-0.007 0.007 216.259-216.607h-823.040c-25.242-0.388-45.556-20.941-45.556-46.239s20.314-45.851 45.519-46.238h822.759l-216.289-216.607c-8.142-8.411-13.16-19.889-13.16-32.539 0-12.83 5.162-24.454 13.522-32.91l-0.004 0.004c8.316-8.208 19.748-13.278 32.363-13.278 12.794 0 24.37 5.214 32.719 13.633l0.003 0.003 293.079 295.209c3.88 4.145 7.106 8.965 9.473 14.253l0.132 0.329c2.247 5.117 3.555 11.082 3.555 17.353 0 0.153-0.001 0.305-0.002 0.457v-0.023c0 0.004 0 0.009 0 0.014 0 12.591-5.020 24.010-13.168 32.364l0.009-0.010-293.079 295.209c-8.275 8.72-19.949 14.144-32.89 14.144-12.417 0-23.667-4.994-31.851-13.084l0.004 0.004z" />
<glyph unicode="&#xe904;" glyph-name="Back-to-top" d="M552.182 609.116v-645.519c0-18.442-14.95-33.393-33.393-33.393s-33.393 14.95-33.393 33.393v645.519c0 18.442 14.95 33.393 33.393 33.393s33.393-14.95 33.393-33.393v0zM730.266 431.073c-0.044-18.42-14.987-33.336-33.413-33.336-9.225 0-17.577 3.739-23.624 9.784l-154.481 154.491-154.491-154.491c-6.064-6.164-14.495-9.984-23.818-9.984-18.448 0-33.403 14.955-33.403 33.403 0 9.323 3.82 17.754 9.979 23.814l0.005 0.004 178.094 178.084c6.045 6.044 14.395 9.783 23.619 9.783s17.574-3.738 23.619-9.783l178.084-178.084c6.077-6.011 9.841-14.351 9.841-23.57 0-0.026 0-0.052 0-0.078v0.004zM1008.527 464.466c0.002-0.52 0.003-1.135 0.003-1.75 0-205.531-127.27-381.337-307.3-452.908l-3.292-1.155c-3.695-1.533-7.987-2.423-12.486-2.423-18.437 0-33.382 14.946-33.382 33.382 0 14.156 8.812 26.255 21.25 31.109l0.227 0.078c158.355 63.501 268.15 215.717 268.15 393.577 0 233.568-189.344 422.912-422.912 422.912s-422.912-189.344-422.912-422.912c0-177.86 109.795-330.076 265.305-392.568l2.845-1.010c12.665-4.932 21.477-17.031 21.477-31.187 0-18.437-14.946-33.382-33.382-33.382-4.5 0-8.791 0.89-12.708 2.504l0.222-0.081c-183.419 73.519-310.6 249.81-310.6 455.806 0 270.481 219.268 489.748 489.748 489.748 270.478 0 489.745-219.264 489.748-489.741v0z" />
<glyph unicode="&#xe905;" glyph-name="bulet" d="M1016.521 373.18c1.123 4.769 1.813 10.257 1.909 15.895s-0.407 11.147-1.451 16.466l0.083-0.514c-20.69 166.732-63.309 318.881-249.534 376.642-17.704 8.542-32.907 18.756-46.451 30.786l0.262-0.228q-85.196 57.716-170.428 115.365l-17.921-27.898c-109.086 10.151-212.049-1.141-280.906-98.986-55.737-79.255-95.794-172.024-161.165-241.521-121.422-129.080-90.145-281.617-34.139-401.422 70.108-149.954 234.749-220.049 399.462-217.728 231.854 3.297 492.468 218.1 560.278 433.142z" />
<glyph unicode="&#xe906;" glyph-name="Clock" d="M512 960c-282.77 0-512-229.23-512-512s229.23-512 512-512c282.77 0 512 229.23 512 512v0c0 0.024 0 0.053 0 0.082 0 282.725-229.194 511.918-511.918 511.918-0.029 0-0.057 0-0.086 0h0.004zM546.458 403.712c-0.058-19.007-15.451-34.4-34.452-34.458h-236.294c-19.033 0-34.463 15.429-34.463 34.463s15.429 34.463 34.463 34.463v0h201.83v324.895c0 19.033 15.429 34.463 34.463 34.463s34.463-15.429 34.463-34.463v0z" />
<glyph unicode="&#xe907;" glyph-name="Group-221" d="M919.24 466.572c-1.225 3.232-1.934 6.969-1.934 10.872 0 3.332 0.517 6.544 1.475 9.559l-0.061-0.223c2.255 6.829 6.376 12.532 11.759 16.676l0.081 0.060c5.286 4.047 11.558 7.109 18.376 8.777l0.344 0.071c4.52 1.182 9.71 1.86 15.058 1.86 1.996 0 3.971-0.095 5.918-0.279l-0.249 0.019c14.734-1.204 27.711-7.885 37.054-17.979l0.034-0.037c4.632-5.096 8.342-11.127 10.805-17.764l0.123-0.38c1.857-4.975 2.932-10.724 2.932-16.724 0-1.576-0.074-3.134-0.219-4.672l0.015 0.197c-0.743-7.606-2.963-14.551-6.372-20.75l0.14 0.278c-3.522-6.544-7.81-12.149-12.848-16.977l-0.024-0.023c-4.998-4.816-10.706-8.946-16.939-12.207l-0.405-0.193c-5.668-2.96-12.265-5.513-19.166-7.316l-0.666-0.148c-10.185-2.533-21.878-3.986-33.91-3.986-2.705 0-5.393 0.073-8.061 0.218l-20.14 0.872-20.488 1.328c-54.608 4-108.728 12.312-162.528 21.424-53.84 9.208-107.344 19.592-161.088 28.12-53.728 8.864-107.576 16.848-161.648 22.56-46.51 5.474-100.389 8.597-154.998 8.597-2.698 0-5.394-0.008-8.089-0.023l0.414 0.002c-13.6 0-27.152-0.52-40.72-1.088-13.544-0.8-27.128-1.472-40.616-2.744-29.088-2.163-56.1-7.643-81.759-16.101l2.399 0.685c-14.085-4.715-26.222-10.347-37.592-17.13l0.872 0.482c-2.832-1.808-5.752-3.512-8.528-5.408s-5.464-3.896-8-6.040c-5.137-4.176-9.452-9.122-12.827-14.7l-0.141-0.252c-2.908-4.818-4.628-10.636-4.628-16.856 0-0.701 0.022-1.397 0.065-2.087l-0.005 0.094c0.28-6.902 3.228-13.066 7.833-17.53l0.007-0.006c2.313-2.196 5.249-3.756 8.516-4.391l0.108-0.017c1.093-0.207 2.351-0.326 3.636-0.326 2.219 0 4.356 0.353 6.357 1.006l-0.145-0.041c3.351 1.022 6.213 2.808 8.491 5.163l0.005 0.005c2.301 2.368 3.777 5.548 3.959 9.070l0.001 0.034c-0.034-3.613-1.402-6.9-3.636-9.398l0.012 0.014c-2.272-2.539-5.147-4.491-8.402-5.636l-0.142-0.044c-2.182-0.816-4.704-1.288-7.336-1.288-1.053 0-2.088 0.076-3.1 0.221l0.116-0.014c-3.687 0.557-6.935 2.123-9.542 4.403l0.022-0.019c-5.142 4.662-8.518 11.192-9.051 18.51l-0.005 0.090c-0.091 0.957-0.143 2.069-0.143 3.194 0 6.329 1.649 12.273 4.54 17.426l-0.093-0.18c3.537 6.31 7.932 11.674 13.11 16.161l0.074 0.063c2.592 2.32 5.32 4.472 8.112 6.512s5.712 3.864 8.568 5.808c10.635 6.82 22.865 12.953 35.74 17.766l1.348 0.442c23.457 8.46 50.742 14.652 79.033 17.409l1.407 0.111q40.88 4.384 81.928 5.248 41.040 1.064 82.072-0.872c27.328-1.208 54.616-3.248 81.824-5.92 54.4-5.432 108.496-13.368 162.4-22.072s107.48-19.2 161.072-28.8 107.336-18.176 161.432-23.136l20.296-1.6 20.328-1.2c2.886-0.207 6.253-0.325 9.647-0.325 10.609 0 20.95 1.153 30.902 3.34l-0.949-0.175c13.422 2.895 25.11 9.017 34.625 17.52l-0.073-0.064c9.518 8.449 16.077 20.045 18.042 33.144l0.038 0.304c0.206 1.602 0.324 3.455 0.324 5.335 0 4.921-0.807 9.653-2.295 14.071l0.091-0.311c-2.201 6.525-5.458 12.158-9.616 16.995l0.056-0.067c-8.561 9.756-20.549 16.323-34.066 17.811l-0.238 0.021c-2.189 0.286-4.719 0.449-7.289 0.449-4.464 0-8.813-0.493-12.995-1.428l0.395 0.074c-6.941-1.473-13.064-4.235-18.387-8.044l0.147 0.1c-5.456-3.862-9.633-9.205-11.981-15.444l-0.075-0.228c-1.128-3.090-1.78-6.658-1.78-10.378 0-3.422 0.552-6.714 1.572-9.794l-0.063 0.22z" />
<glyph unicode="&#xe908;" glyph-name="Instagram" d="M512.113 704.788c-144.965 0-262.482-117.517-262.482-262.482s117.517-262.482 262.482-262.482c144.965 0 262.482 117.517 262.482 262.482 0 0.004 0 0.007 0 0.011v0c0 0.122 0 0.266 0 0.41 0 144.733-117.329 262.062-262.062 262.062-0.148 0-0.296 0-0.443 0h0.023zM512.113 271.636c-94.247 0-170.65 76.402-170.65 170.65s76.402 170.65 170.65 170.65c94.236 0 170.632-76.385 170.65-170.617v-0.002c-0.204-94.165-76.485-170.446-170.63-170.65h-0.019zM846.551 715.499c0-33.814-27.411-61.225-61.225-61.225s-61.225 27.411-61.225 61.225c0 33.814 27.411 61.225 61.225 61.225v0c0.043 0 0.093 0 0.143 0 33.734 0 61.082-27.347 61.082-61.082 0-0.040 0-0.079 0-0.119v0.006zM1020.396 653.363c-3.881 82.012-22.62 154.624-82.698 214.508-59.853 59.884-132.495 78.612-214.508 82.729-84.521 4.792-337.869 4.792-422.39 0-81.787-3.881-154.429-22.641-214.508-82.473s-78.582-132.495-82.698-214.508c-4.792-84.521-4.792-337.869 0-422.39 3.881-82.012 22.62-154.624 82.698-214.508s132.495-78.582 214.508-82.698c84.521-4.803 337.869-4.803 422.39 0 82.012 3.881 154.624 22.62 214.508 82.698 59.853 59.853 78.582 132.495 82.698 214.508 4.792 84.521 4.792 337.644 0 422.164zM911.206 140.503c-17.946-44.631-52.649-79.334-96.12-96.867l-1.16-0.413c-67.389-26.726-227.328-20.562-301.773-20.562s-234.609-5.939-301.773 20.562c-44.631 17.946-79.334 52.649-96.867 96.12l-0.413 1.16c-26.726 67.389-20.562 227.328-20.562 301.773s-5.939 234.609 20.562 301.773c17.946 44.631 52.649 79.334 96.12 96.867l1.16 0.413c67.389 26.726 227.328 20.562 301.773 20.562s234.609 5.939 301.773-20.562c44.631-17.946 79.334-52.649 96.867-96.12l0.413-1.16c26.726-67.389 20.562-227.328 20.562-301.773s6.164-234.578-20.562-301.773z" />
<glyph unicode="&#xe909;" glyph-name="Linkedin" d="M229.212-79.882h-212.296v683.674h212.296zM122.952 697.047c-0.176-0.001-0.384-0.001-0.593-0.001-68.227 0-123.535 55.309-123.535 123.535s55.309 123.535 123.535 123.535c68.021 0 123.202-54.976 123.534-122.918v-0.032c0-0.041 0-0.089 0-0.138 0-68.108-54.917-123.39-122.886-123.981h-0.056zM1023.775-79.882h-211.845v332.8c0 79.319-1.597 181.033-110.377 181.033-110.377 0-127.293-86.17-127.293-175.319v-338.514h-212.060v683.674h203.602v-93.256h2.97c28.344 53.719 97.577 110.397 200.868 110.397 214.866 0 254.362-141.486 254.362-325.253v-375.562z" />
<glyph unicode="&#xe90a;" glyph-name="Minus" d="M885.76 301.629h-747.52c-76.607 0.677-138.447 62.936-138.447 139.638s61.84 138.961 138.383 139.637h747.584c76.607-0.677 138.447-62.936 138.447-139.638s-61.84-138.961-138.383-139.637h-0.064zM138.24 534.354c-50.822-0.778-91.721-42.158-91.721-93.092s40.9-92.314 91.648-93.091l0.073-0.001h747.52c50.822 0.778 91.721 42.158 91.721 93.092s-40.9 92.314-91.648 93.091l-0.073 0.001z" />
<glyph unicode="&#xe90b;" glyph-name="Next" d="M696.054 441.958l-444.989 444.989c-7.129 7.129-11.539 16.979-11.539 27.858 0 21.758 17.639 39.397 39.397 39.397 10.879 0 20.728-4.41 27.858-11.539l472.852-472.812c7.128-7.13 11.536-16.979 11.536-27.858s-4.409-20.728-11.537-27.858l-472.852-472.873c-7.076-6.831-16.723-11.041-27.353-11.041-21.762 0-39.404 17.642-39.404 39.404 0 10.63 4.209 20.277 11.052 27.365l-0.011-0.012z" />
<glyph unicode="&#xe90c;" glyph-name="Plus" d="M903.997 558.868h-271.995v271.995c-0.627 65.797-54.112 118.894-119.997 118.894s-119.37-53.097-119.997-118.835v-272.054h-272.005c-66.276 0-120.003-53.727-120.003-120.003s53.727-120.003 120.003-120.003h271.995v-271.995c0-66.276 53.727-120.003 120.003-120.003s120.003 53.727 120.003 120.003v0 271.995h271.995c0.329-0.003 0.719-0.005 1.109-0.005 66.276 0 120.003 53.727 120.003 120.003s-53.727 120.003-120.003 120.003c-0.39 0-0.779-0.002-1.168-0.006h0.059zM903.997 378.87h-301.998c-16.57 0-30.003-13.433-30.003-30.003v0-301.998c0-33.138-26.863-60.001-60.001-60.001s-60.001 26.863-60.001 60.001v0 301.998c0 16.57-13.433 30.003-30.003 30.003h-301.988c-33.138 0-60.001 26.863-60.001 60.001s26.863 60.001 60.001 60.001v0h301.998c16.57 0 30.003 13.433 30.003 30.003v0 301.988c0 33.138 26.863 60.001 60.001 60.001s60.001-26.863 60.001-60.001v0-301.998c0-16.57 13.433-30.003 30.003-30.003h301.988c33.138 0 60.001-26.863 60.001-60.001s-26.863-60.001-60.001-60.001v0z" />
<glyph unicode="&#xe90d;" glyph-name="Privacy" d="M106.629-69.796v564.961h105.933v176.558c0 0.003 0 0.007 0 0.010 0 156.004 126.466 282.47 282.47 282.47 0.004 0 0.007 0 0.011 0h35.307c156.010-0.006 282.479-126.472 282.491-282.48v-176.559h105.923v-564.972h-812.134zM486.001 220.201l-26.266-184.074h105.933l-26.307 184.074c25.989 10.809 43.93 35.996 43.93 65.372 0 38.994-31.611 70.605-70.605 70.605s-70.605-31.611-70.605-70.605c0-29.376 17.941-54.562 43.463-65.199l0.467-0.173zM706.908 654.059c0.003 0.419 0.005 0.914 0.005 1.41 0 107.26-86.952 194.212-194.212 194.212s-194.212-86.952-194.212-194.212c0-0.496 0.002-0.991 0.006-1.486v0.076-158.894h388.413z" />
<glyph unicode="&#xe90e;" glyph-name="Quotes" d="M931.953 759.695c57.528-63.283 92.047-132.301 92.047-247.368 0-201.349-143.821-379.689-345.17-471.685l-51.773 74.752c189.839 103.547 230.113 235.868 241.664 322.161-23.123-12.485-50.612-19.822-79.814-19.822-10.42 0-20.622 0.934-30.526 2.723l1.039-0.156c-103.598 11.51-184.136 92.027-184.136 201.329 1.855 55.506 23.36 105.656 57.739 144.036l-0.19-0.215c34.696 35.588 83.108 57.661 136.675 57.661 2.506 0 5-0.048 7.482-0.144l-0.357 0.011c60.395-0.451 115.088-24.491 155.4-63.35l-0.069 0.066zM356.669 759.695c57.528-63.283 92.047-132.301 92.047-247.368 0-201.349-143.821-379.689-345.17-471.685l-51.773 74.752c189.891 103.537 230.113 235.858 241.623 322.15-23.123-12.485-50.612-19.822-79.814-19.822-10.42 0-20.622 0.934-30.526 2.723l1.039-0.156c-102.969 10.887-182.696 96.588-184.093 201.198l-0.001 0.141c1.849 55.503 23.347 105.654 57.719 144.037l-0.19-0.216c34.696 35.588 83.108 57.662 136.676 57.662 2.513 0 5.014-0.049 7.503-0.145l-0.358 0.011c60.395-0.451 115.088-24.491 155.4-63.35l-0.069 0.066z" />
<glyph unicode="&#xe90f;" glyph-name="Search" d="M1011.794 4.321l-284.672 287.386c54.777 68.562 87.9 156.514 87.9 252.202 0 224.095-181.665 405.76-405.76 405.76s-405.76-181.665-405.76-405.76c0-224.095 181.665-405.76 405.76-405.76 97.526 0 187.017 34.407 256.994 91.745l-0.717-0.57 282.86-285.522c7.996-8.383 19.252-13.595 31.726-13.595 11.678 0 22.289 4.568 30.143 12.016l-0.020-0.018c8.377 8.041 13.582 19.331 13.582 31.837 0 11.734-4.583 22.398-12.056 30.3l0.019-0.021zM408.238 225.864c-176.927 0.033-320.341 143.468-320.341 320.399 0 176.952 143.448 320.399 320.399 320.399s320.399-143.448 320.399-320.399c0-88.478-35.863-168.579-93.846-226.56v0c-57.686-57.968-137.529-93.841-225.751-93.841-0.302 0-0.605 0-0.907 0.001h0.047z" />
<glyph unicode="&#xe910;" glyph-name="Share" d="M823.194 228.649c-1.152 0.034-2.507 0.053-3.866 0.053-37.574 0-71.709-14.719-96.956-38.705l0.061 0.057-369.408 213.545c2.817 10.655 4.674 23.008 5.161 35.712l0.010 0.323c-0.496 13.026-2.353 25.379-5.437 37.237l0.265-1.202 364.257 210.944c27.617-25.513 64.678-41.16 105.394-41.16 85.491 0 154.87 68.983 155.51 154.323v0.061c-0.713 85.062-69.835 153.743-154.998 153.743s-154.284-68.681-154.997-153.675v-0.068c0.489-13.022 2.346-25.375 5.436-37.231l-0.265 1.196-364.247-210.944c-27.612 25.504-64.664 41.145-105.37 41.145-0.191 0-0.381 0-0.572-0.001h0.029c-84.243-0.299-152.419-68.66-152.419-152.944 0-0.504 0.002-1.008 0.007-1.511l-0.001 0.077c0.666-85.387 70.040-154.35 155.521-154.35 40.715 0 77.777 15.646 105.499 41.253l-0.105-0.096 366.797-213.565c-3.014-9.96-4.867-21.436-5.118-33.306l-0.002-0.138c-0.001-0.176-0.001-0.385-0.001-0.594 0-82.744 67.077-149.821 149.821-149.821s149.821 67.077 149.821 149.821c0 82.744-67.077 149.821-149.821 149.821-0.003 0-0.006 0-0.010 0h0.001z" />
<glyph unicode="&#xe911;" glyph-name="Twitter" d="M918.743 627.487c0.645-8.079 0.645-16.159 0.645-24.238 0-246.467-211.169-530.432-597.115-530.432-1.089-0.007-2.376-0.010-3.665-0.010-117.104 0-226.957 31.045-321.778 85.354l3.169-1.672c14.236-1.474 30.761-2.314 47.482-2.314 1.123 0 2.246 0.004 3.368 0.011l-0.172-0.001c0.98-0.008 2.139-0.012 3.299-0.012 96.13 0 185.296 29.814 258.757 80.699l-1.509-0.989c-92.262 1.731-169.585 55.409-196.229 129.29 11.845-1.757 25.581-2.804 39.546-2.887h0.093c19.606 0.047 38.649 2.358 56.911 6.686l-1.687-0.337c-96.195 17.275-168.274 92.314-168.274 182.938v2.304c27.66-13.908 60.127-22.521 94.487-23.655l0.377-0.010c-56.525 33.475-93.563 90.624-93.563 155.269 0.031 35.078 10.707 67.656 28.972 94.685l-0.382-0.6c103.301-113.132 258.601-187.013 432.722-195.092-3.209 12.795-5.1 27.508-5.202 42.645v0.066c0 102.738 93.563 186.44 209.869 186.44 0.766 0.010 1.671 0.015 2.577 0.015 58.247 0 111.264-22.389 150.916-59.031l-0.149 0.136c49.954 8.636 94.68 24.334 135.595 46.225l-2.393-1.169c-17.411-44.983-49.917-80.902-91.174-102.276l-1.068-0.503c44.628 4.572 85.557 14.766 123.968 29.949l-3.136-1.093c-29.573-37.75-64.357-69.712-103.623-95.387l-1.634-1.002z" />
<glyph unicode="&#xe912;" glyph-name="z-facebook" d="M743.424 389.498l27.889 181.67h-174.321v118.001c-0.232 2.438-0.365 5.271-0.365 8.136 0 50.167 40.668 90.835 90.835 90.835 4.207 0 8.347-0.286 12.402-0.84l-0.471 0.053h79.27v154.805c-41.878 7.056-90.529 11.412-140.078 12.041l-0.632 0.006c-143.541 0-237.387-87.040-237.387-244.555v-138.541h-159.624v-181.609h159.624v-439.236h196.427v439.236z" />
<glyph unicode="&#xe913;" glyph-name="z-menu" d="M974.578 653.876h-932.217c-23.346 0.076-42.254 18.966-42.361 42.297v0.010c0.076 23.365 18.997 42.285 42.354 42.361h932.224c23.376-0.061 42.312-18.987 42.388-42.354v-0.007c-0.107-23.351-19.031-42.246-42.382-42.307h-0.006zM974.578 399.627h-932.217c-23.374 0.076-42.3 19.012-42.361 42.382v0.006c0.076 23.365 18.997 42.285 42.354 42.361h932.224c23.365-0.076 42.285-18.997 42.361-42.354v-0.007c-0.061-23.376-18.987-42.312-42.354-42.388h-0.007zM974.578 145.406h-932.217c-23.346 0.076-42.254 18.966-42.361 42.297v0.010c0.076 23.365 18.997 42.285 42.354 42.361h932.224c23.376-0.061 42.312-18.987 42.388-42.354v-0.007c-0.107-23.351-19.031-42.246-42.382-42.307h-0.006z" />
<glyph unicode="&#xe914;" glyph-name="z-phone" d="M994.764 230.603l-224.016 96.023c-5.514 2.394-11.936 3.787-18.683 3.787-14.918 0-28.246-6.808-37.046-17.486l-0.066-0.082-99.203-121.186c-156.39 74.826-279.635 197.98-352.649 349.851l-1.926 4.446 121.242 99.203c10.773 8.846 17.592 22.166 17.592 37.079 0 6.761-1.402 13.194-3.93 19.026l0.12-0.31-96.023 224.239c-7.625 17.264-24.595 29.093-44.329 29.093-3.788 0-7.474-0.436-11.011-1.26l0.326 0.064-207.947-48.095c-21.477-5.072-37.215-24.078-37.215-46.76 0-0.018 0-0.037 0-0.055v0.003c0-0.033 0-0.072 0-0.112 0-512.446 415.42-927.866 927.866-927.866 0.039 0 0.079 0 0.118 0h-0.006c0.015 0 0.034 0 0.052 0 22.682 0 41.688 15.738 46.694 36.889l0.065 0.326 47.983 208.003c0.754 3.207 1.187 6.89 1.187 10.673 0 19.78-11.817 36.799-28.776 44.384l-0.308 0.123z" />
<glyph unicode="&#xe915;" glyph-name="style-icon" horiz-adv-x="223" d="M175.568 38.032c3.239 1.227 6.985 1.937 10.896 1.937 3.344 0 6.566-0.519 9.592-1.481l-0.224 0.061c6.855-2.275 12.575-6.428 16.722-11.848l0.061-0.083c4.057-5.301 7.126-11.59 8.798-18.427l0.071-0.345c1.148-4.465 1.808-9.59 1.808-14.869 0-2.060-0.1-4.097-0.297-6.106l0.020 0.255c-1.207-14.782-7.911-27.8-18.038-37.171l-0.037-0.034c-5.11-4.644-11.159-8.364-17.814-10.833l-0.381-0.124c-4.982-1.857-10.738-2.931-16.745-2.931-1.589 0-3.16 0.075-4.71 0.222l0.198-0.015c-7.631 0.741-14.6 2.967-20.821 6.385l0.279-0.141c-6.56 3.532-12.178 7.831-17.019 12.882l-0.023 0.024c-4.827 5.014-8.967 10.74-12.235 16.993l-0.193 0.406c-2.965 5.683-5.523 12.298-7.329 19.217l-0.148 0.668c-2.543 10.22-4.002 21.953-4.002 34.027 0 2.72 0.074 5.423 0.22 8.106l0.879 20.208 1.332 20.542c3.977 54.764 12.349 109.052 21.476 163.060s19.687 107.6 28.237 161.529c8.889 53.89 16.903 107.898 22.63 162.126 5.495 46.672 8.631 100.736 8.631 155.532 0 2.647-0.007 5.293-0.022 7.937l0.002-0.408c0 13.622-0.517 27.223-1.094 40.845s-1.491 27.243-2.764 40.705c-2.177 29.158-7.677 56.23-16.158 81.947l0.687-2.406c-4.732 14.126-10.382 26.298-17.187 37.702l0.483-0.875c-1.81 2.844-3.52 5.767-5.429 8.551s-3.977 5.468-5.966 7.954c-4.189 5.144-9.149 9.464-14.74 12.843l-0.253 0.142c-4.83 2.912-10.661 4.635-16.895 4.635-0.709 0-1.413-0.022-2.111-0.066l0.095 0.005c-6.932-0.304-13.112-3.293-17.57-7.945l-0.009-0.009c-2.199-2.321-3.763-5.266-4.397-8.542l-0.017-0.108c-0.214-1.112-0.336-2.392-0.336-3.7 0-2.23 0.356-4.378 1.014-6.388l-0.041 0.145c1.025-3.365 2.82-6.239 5.185-8.526l0.006-0.005c2.373-2.309 5.561-3.791 9.093-3.976l0.035-0.001c-3.625 0.042-6.919 1.423-9.419 3.671l0.013-0.012c-2.543 2.28-4.498 5.163-5.644 8.428l-0.044 0.143c-0.822 2.194-1.298 4.729-1.298 7.375 0 1.046 0.074 2.075 0.218 3.081l-0.014-0.115c0.559 3.696 2.128 6.953 4.413 9.567l-0.019-0.022c4.68 5.147 11.226 8.526 18.562 9.062l0.091 0.005c1.128 0.126 2.435 0.198 3.759 0.198 6.094 0 11.833-1.523 16.856-4.209l-0.192 0.094c6.327-3.547 11.706-7.955 16.203-13.149l0.063-0.075c2.327-2.605 4.494-5.329 6.522-8.133s3.878-5.727 5.826-8.591c6.843-10.658 12.998-22.913 17.831-35.815l0.444-1.351c8.487-23.525 14.699-50.889 17.467-79.263l0.111-1.412q4.395-41.004 5.27-82.167t-0.875-82.306c-1.213-27.402-3.261-54.784-5.966-82.067-5.449-54.566-13.403-108.813-22.132-162.842s-19.269-107.799-28.854-161.549-18.235-107.66-23.206-161.907l-1.631-20.363-1.213-20.383c-0.21-2.911-0.33-6.308-0.33-9.732 0-10.64 1.156-21.010 3.349-30.991l-0.176 0.952c2.901-13.463 9.038-25.188 17.564-34.734l-0.065 0.074c8.474-9.547 20.104-16.127 33.242-18.098l0.305-0.038c1.604-0.206 3.459-0.324 5.341-0.324 4.938 0 9.686 0.81 14.12 2.304l-0.312-0.091c6.552 2.198 12.211 5.457 17.070 9.622l-0.068-0.057c9.784 8.58 16.373 20.594 17.875 34.142l0.022 0.24c0.282 2.176 0.443 4.693 0.443 7.247 0 4.478-0.495 8.84-1.432 13.035l0.074-0.397c-1.473 6.961-4.239 13.103-8.055 18.443l0.101-0.148c-3.872 5.47-9.227 9.659-15.481 12.015l-0.229 0.076c-3.118 1.146-6.718 1.809-10.474 1.809-3.383 0-6.641-0.538-9.692-1.534l0.221 0.062zM167.475 38.032c3.239 1.227 6.985 1.937 10.896 1.937 3.344 0 6.566-0.519 9.592-1.481l-0.224 0.061c6.855-2.275 12.575-6.428 16.722-11.848l0.061-0.083c4.057-5.301 7.126-11.59 8.798-18.427l0.071-0.345c1.148-4.465 1.808-9.59 1.808-14.869 0-2.060-0.1-4.097-0.297-6.106l0.020 0.255c-1.207-14.782-7.911-27.8-18.038-37.171l-0.037-0.034c-5.11-4.644-11.159-8.364-17.814-10.833l-0.381-0.124c-4.982-1.857-10.738-2.931-16.745-2.931-1.589 0-3.16 0.075-4.71 0.222l0.198-0.015c-7.631 0.741-14.6 2.967-20.821 6.385l0.279-0.141c-6.56 3.532-12.178 7.831-17.019 12.882l-0.023 0.024c-4.827 5.014-8.967 10.74-12.235 16.993l-0.193 0.406c-2.965 5.683-5.523 12.298-7.329 19.217l-0.148 0.668c-2.543 10.22-4.002 21.953-4.002 34.027 0 2.72 0.074 5.423 0.22 8.106l0.879 20.208 1.332 20.542c3.977 54.764 12.349 109.052 21.476 163.060s19.687 107.6 28.237 161.529c8.889 53.89 16.903 107.898 22.63 162.126 5.495 46.672 8.631 100.736 8.631 155.532 0 2.647-0.007 5.293-0.022 7.937l0.002-0.408c0 13.622-0.517 27.223-1.094 40.845s-1.491 27.243-2.764 40.705c-2.177 29.158-7.677 56.23-16.158 81.947l0.687-2.406c-4.732 14.126-10.382 26.298-17.187 37.702l0.483-0.875c-1.81 2.844-3.52 5.767-5.429 8.551s-3.977 5.468-5.966 7.954c-4.189 5.144-9.149 9.464-14.74 12.843l-0.253 0.142c-4.83 2.912-10.661 4.635-16.895 4.635-0.709 0-1.413-0.022-2.111-0.066l0.095 0.005c-6.932-0.304-13.112-3.293-17.57-7.945l-0.009-0.009c-2.199-2.321-3.763-5.266-4.397-8.542l-0.017-0.108c-0.214-1.112-0.336-2.392-0.336-3.7 0-2.23 0.356-4.378 1.014-6.388l-0.041 0.145c1.025-3.365 2.82-6.239 5.185-8.526l0.006-0.005c2.373-2.309 5.561-3.791 9.093-3.976l0.035-0.001c-3.625 0.042-6.919 1.423-9.419 3.671l0.013-0.012c-2.543 2.28-4.498 5.163-5.644 8.428l-0.044 0.143c-0.822 2.194-1.298 4.729-1.298 7.375 0 1.046 0.074 2.075 0.218 3.081l-0.014-0.115c0.559 3.696 2.128 6.953 4.413 9.567l-0.019-0.022c4.68 5.147 11.226 8.526 18.562 9.062l0.091 0.005c1.128 0.126 2.435 0.198 3.759 0.198 6.094 0 11.833-1.523 16.856-4.209l-0.192 0.094c6.327-3.547 11.706-7.955 16.203-13.149l0.063-0.075c2.327-2.605 4.494-5.329 6.522-8.133s3.878-5.727 5.826-8.591c6.843-10.658 12.998-22.913 17.831-35.815l0.444-1.351c8.487-23.525 14.699-50.889 17.467-79.263l0.111-1.412q4.395-41.004 5.27-82.167t-0.875-82.306c-1.213-27.402-3.261-54.784-5.966-82.067-5.449-54.566-13.403-108.813-22.132-162.842s-19.269-107.799-28.854-161.549-18.235-107.66-23.206-161.907l-1.631-20.363-1.213-20.383c-0.21-2.911-0.33-6.308-0.33-9.732 0-10.64 1.156-21.010 3.349-30.991l-0.176 0.952c2.901-13.463 9.038-25.188 17.564-34.734l-0.065 0.074c8.474-9.547 20.104-16.127 33.242-18.098l0.305-0.038c1.604-0.206 3.459-0.324 5.341-0.324 4.938 0 9.686 0.81 14.12 2.304l-0.312-0.091c6.552 2.198 12.211 5.457 17.070 9.622l-0.068-0.057c9.784 8.58 16.373 20.594 17.875 34.142l0.022 0.24c0.282 2.176 0.443 4.693 0.443 7.247 0 4.478-0.495 8.84-1.432 13.035l0.074-0.397c-1.473 6.961-4.239 13.103-8.055 18.443l0.101-0.148c-3.872 5.47-9.227 9.659-15.481 12.015l-0.229 0.076c-3.118 1.146-6.718 1.809-10.474 1.809-3.383 0-6.641-0.538-9.692-1.534l0.221 0.062zM47.725 857.988c-3.239-1.227-6.985-1.937-10.896-1.937-3.344 0-6.566 0.519-9.592 1.481l0.224-0.061c-6.855 2.275-12.575 6.428-16.722 11.848l-0.061 0.083c-4.064 5.3-7.139 11.589-8.817 18.427l-0.072 0.345c-1.139 4.447-1.793 9.552-1.793 14.81 0 2.081 0.102 4.139 0.303 6.168l-0.020-0.257c1.207 14.782 7.911 27.8 18.038 37.171l0.037 0.034c5.11 4.644 11.159 8.364 17.814 10.833l0.381 0.124c4.982 1.857 10.738 2.931 16.745 2.931 1.589 0 3.16-0.075 4.71-0.222l-0.198 0.015c7.631-0.742 14.6-2.967 20.821-6.385l-0.279 0.141c6.56-3.532 12.178-7.831 17.019-12.882l0.023-0.024c4.827-5.014 8.967-10.74 12.235-16.993l0.193-0.406c2.972-5.683 5.536-12.298 7.348-19.217l0.149-0.669c2.543-10.22 4.002-21.953 4.002-34.027 0-2.72-0.074-5.423-0.22-8.106l-0.879-20.208-1.332-20.542c-3.977-54.764-12.349-109.052-21.476-163.060s-19.687-107.6-28.237-161.529c-8.889-53.89-16.903-107.898-22.63-162.126-5.495-46.67-8.631-100.733-8.631-155.529 0-2.648 0.007-5.295 0.022-7.939l-0.002 0.408c0-13.622 0.517-27.223 1.094-40.845s1.472-27.243 2.744-40.705c2.177-29.158 7.677-56.23 16.158-81.947l-0.687 2.406c4.732-14.126 10.382-26.298 17.187-37.702l-0.483 0.875c1.81-2.844 3.52-5.767 5.429-8.551s3.977-5.468 5.966-7.954c4.189-5.144 9.149-9.464 14.74-12.843l0.253-0.142c4.83-2.912 10.661-4.635 16.895-4.635 0.709 0 1.413 0.022 2.111 0.066l-0.095-0.005c6.932 0.304 13.112 3.293 17.57 7.945l0.009 0.009c2.2 2.32 3.764 5.265 4.397 8.542l0.017 0.108c0.214 1.112 0.336 2.392 0.336 3.7 0 2.23-0.356 4.378-1.014 6.388l0.041-0.145c-1.025 3.365-2.82 6.239-5.185 8.526l-0.006 0.005c-2.373 2.309-5.561 3.791-9.093 3.976l-0.035 0.001c3.625-0.042 6.919-1.423 9.419-3.671l-0.013 0.012c2.543-2.28 4.498-5.163 5.644-8.428l0.044-0.143c0.822-2.194 1.298-4.729 1.298-7.375 0-1.046-0.074-2.075-0.218-3.081l0.014 0.115c-0.559-3.696-2.128-6.953-4.413-9.567l0.019 0.022c-4.68-5.147-11.226-8.526-18.562-9.062l-0.091-0.005c-1.128-0.126-2.435-0.198-3.759-0.198-6.094 0-11.833 1.523-16.856 4.209l0.192-0.094c-6.327 3.547-11.706 7.955-16.203 13.149l-0.063 0.075c-2.327 2.605-4.494 5.329-6.522 8.133s-3.878 5.727-5.826 8.591c-6.843 10.658-12.998 22.913-17.831 35.815l-0.444 1.351c-8.487 23.525-14.7 50.889-17.467 79.263l-0.111 1.412q-4.395 41.004-5.27 82.167t0.875 82.306c1.213 27.402 3.261 54.784 5.966 82.067 5.449 54.566 13.403 108.813 22.132 162.842s19.269 107.799 28.874 161.549 18.235 107.66 23.206 161.907l1.631 20.363 1.213 20.383c0.21 2.912 0.33 6.309 0.33 9.734 0 10.639-1.156 21.009-3.349 30.989l0.176-0.952c-2.901 13.463-9.038 25.188-17.564 34.734l0.065-0.074c-8.474 9.547-20.104 16.127-33.242 18.098l-0.305 0.038c-1.604 0.206-3.459 0.324-5.341 0.324-4.938 0-9.686-0.81-14.12-2.304l0.312 0.091c-6.552-2.198-12.211-5.457-17.070-9.622l0.068 0.057c-9.784-8.58-16.373-20.594-17.875-34.142l-0.022-0.24c-0.282-2.176-0.443-4.693-0.443-7.247 0-4.478 0.495-8.84 1.432-13.035l-0.074 0.397c1.473-6.961 4.239-13.103 8.055-18.443l-0.101 0.148c3.872-5.47 9.227-9.659 15.481-12.015l0.229-0.076c3.115-1.143 6.713-1.805 10.465-1.805 3.379 0 6.633 0.537 9.681 1.529l-0.221-0.062zM55.818 857.988c-3.239-1.227-6.985-1.937-10.896-1.937-3.344 0-6.566 0.519-9.592 1.481l0.224-0.061c-6.855 2.275-12.575 6.428-16.722 11.848l-0.061 0.083c-4.064 5.3-7.139 11.589-8.817 18.427l-0.072 0.345c-1.139 4.447-1.793 9.552-1.793 14.81 0 2.081 0.102 4.139 0.303 6.168l-0.020-0.257c1.207 14.782 7.911 27.8 18.038 37.171l0.037 0.034c5.11 4.644 11.159 8.364 17.814 10.833l0.381 0.124c4.982 1.857 10.738 2.931 16.745 2.931 1.589 0 3.16-0.075 4.71-0.222l-0.198 0.015c7.631-0.742 14.6-2.967 20.821-6.385l-0.279 0.141c6.56-3.532 12.178-7.831 17.019-12.882l0.023-0.024c4.827-5.014 8.967-10.74 12.235-16.993l0.193-0.406c2.972-5.683 5.536-12.298 7.348-19.217l0.149-0.669c2.543-10.22 4.002-21.953 4.002-34.027 0-2.72-0.074-5.423-0.22-8.106l-0.879-20.208-1.332-20.542c-3.977-54.764-12.349-109.052-21.476-163.060s-19.687-107.6-28.237-161.529c-8.889-53.89-16.903-107.898-22.63-162.126-5.495-46.67-8.631-100.733-8.631-155.529 0-2.648 0.007-5.295 0.022-7.939l-0.002 0.408c0-13.622 0.517-27.223 1.094-40.845s1.472-27.243 2.744-40.705c2.177-29.158 7.677-56.23 16.158-81.947l-0.687 2.406c4.732-14.126 10.382-26.298 17.187-37.702l-0.483 0.875c1.81-2.844 3.52-5.767 5.429-8.551s3.977-5.468 5.966-7.954c4.189-5.144 9.149-9.464 14.74-12.843l0.253-0.142c4.83-2.912 10.661-4.635 16.895-4.635 0.709 0 1.413 0.022 2.111 0.066l-0.095-0.005c6.932 0.304 13.112 3.293 17.57 7.945l0.009 0.009c2.2 2.32 3.764 5.265 4.397 8.542l0.017 0.108c0.214 1.112 0.336 2.392 0.336 3.7 0 2.23-0.356 4.378-1.014 6.388l0.041-0.145c-1.025 3.365-2.82 6.239-5.185 8.526l-0.006 0.005c-2.373 2.309-5.561 3.791-9.093 3.976l-0.035 0.001c3.625-0.042 6.919-1.423 9.419-3.671l-0.013 0.012c2.543-2.28 4.498-5.163 5.644-8.428l0.044-0.143c0.822-2.194 1.298-4.729 1.298-7.375 0-1.046-0.074-2.075-0.218-3.081l0.014 0.115c-0.559-3.696-2.128-6.953-4.413-9.567l0.019 0.022c-4.68-5.147-11.226-8.526-18.562-9.062l-0.091-0.005c-1.128-0.126-2.435-0.198-3.759-0.198-6.094 0-11.833 1.523-16.856 4.209l0.192-0.094c-6.327 3.547-11.706 7.955-16.203 13.149l-0.063 0.075c-2.327 2.605-4.494 5.329-6.522 8.133s-3.878 5.727-5.826 8.591c-6.843 10.658-12.998 22.913-17.831 35.815l-0.444 1.351c-8.487 23.525-14.7 50.889-17.467 79.263l-0.111 1.412q-4.395 41.004-5.27 82.167t0.875 82.306c1.213 27.402 3.261 54.784 5.966 82.067 5.449 54.566 13.403 108.813 22.132 162.842s19.269 107.799 28.874 161.549 18.235 107.66 23.206 161.907l1.631 20.363 1.213 20.383c0.21 2.912 0.33 6.309 0.33 9.734 0 10.639-1.156 21.009-3.349 30.989l0.176-0.952c-2.901 13.463-9.038 25.188-17.564 34.734l0.065-0.074c-8.474 9.547-20.104 16.127-33.242 18.098l-0.305 0.038c-1.604 0.206-3.459 0.324-5.341 0.324-4.938 0-9.686-0.81-14.12-2.304l0.312 0.091c-6.552-2.198-12.211-5.457-17.070-9.622l0.068 0.057c-9.784-8.58-16.373-20.594-17.875-34.142l-0.022-0.24c-0.282-2.176-0.443-4.693-0.443-7.247 0-4.478 0.495-8.84 1.432-13.035l-0.074 0.397c1.473-6.961 4.239-13.103 8.055-18.443l-0.101 0.148c3.872-5.47 9.227-9.659 15.481-12.015l0.229-0.076c3.115-1.143 6.713-1.805 10.465-1.805 3.379 0 6.633 0.537 9.681 1.529l-0.221-0.062z" />
<glyph unicode="&#xe916;" glyph-name="icon-close" d="M1024 857.605l-102.382 102.395-409.632-409.632-409.632 409.632-102.355-102.395 409.632-409.632-409.632-409.632 102.395-102.395 409.632 409.632 409.632-409.632 102.395 102.395-409.632 409.632z" />
<glyph unicode="&#xead2;" glyph-name="pinterest" d="M512 960c-282.4 0-512-229.6-512-512s229.6-512 512-512 512 229.6 512 512-229.6 512-512 512zM512 4.4c-45.8 0-89.8 7-131.4 19.8 18 29.4 45.2 77.8 55.2 116.2 5.4 20.8 27.6 105.4 27.6 105.4 14.4-27.6 56.8-51 101.6-51 133.8 0 230.2 123 230.2 276 0 146.6-119.6 256.2-273.4 256.2-191.4 0-293-128.6-293-268.4 0-65 34.6-146 90-171.8 8.4-4 12.8-2.2 14.8 6 1.4 6.2 9 36.2 12.4 50.4 1 4.4 0.6 8.4-3 12.8-18.4 22.2-33 63.2-33 101.2 0 97.8 74 192.6 200.2 192.6 109 0 185.2-74.2 185.2-180.4 0-120-60.6-203.2-139.4-203.2-43.6 0-76.2 36-65.6 80.2 12.6 52.8 36.8 109.6 36.8 147.6 0 34-18.2 62.4-56.2 62.4-44.6 0-80.2-46-80.2-107.8 0-39.2 13.2-65.8 13.2-65.8s-44-185.8-52-220.4c-9-38.4-5.4-92.2-1.6-127.2-165 64.4-282 224.8-282 412.8 0 245 198.6 443.6 443.6 443.6s443.6-198.6 443.6-443.6c0-245-198.6-443.6-443.6-443.6z" />
</font>
</defs>
</svg>
